ffmpeg / ffmpeg-php brauche Hilfe !

Apache, Lighttpd, nginx, Cherokee
ballermann
Posts: 13
Joined: 2006-12-01 18:01
Location: Siegburg / NRW

ffmpeg / ffmpeg-php brauche Hilfe !

Post by ballermann » 2006-12-26 01:04

Hallo,

seit Wochen versuche ich ffmpeg auf meinem Root (Suse 9.3) zu installieren.
Ich bekomme es einfach nicht hin. Wer kann mir helfen, bzw. ein auch für Linuxanfänger verständliches Howto schreiben.
Hier ist meine php-info http://www.bodo-werner.de/test.php

Der Admin meines Vertrauens lässt mich derzeit leider ein wenig hängen.

Roger Wilco
Administrator
Administrator
Posts: 5924
Joined: 2004-05-23 12:53

Re: ffmpeg / ffmpeg-php brauche Hilfe !

Post by Roger Wilco » 2006-12-26 01:15

Was ist dir an den Installationsanweisungen unter http://ffmpeg-php.sourceforge.net/ unklar?

ballermann
Posts: 13
Joined: 2006-12-01 18:01
Location: Siegburg / NRW

Re: ffmpeg / ffmpeg-php brauche Hilfe !

Post by ballermann » 2006-12-27 23:26

Ich bin soweit vorangekommen.
Allerdings stimmt etwas immer noch nicht.

Thumbs werden erstellt, das Video wird aber nicht geladen bzw. abgespielt.

Siehe http://www.airfans.de/video/index.php

In der php.info erscheint ffmpeg auch. Siehe http://www.bodo-werner.de/test.php

Was läuft da schief ?

a-n
Posts: 145
Joined: 2004-05-10 10:15

Re: ffmpeg / ffmpeg-php brauche Hilfe !

Post by a-n » 2006-12-28 13:47

Du solltest in den Error logs mal schauen, da steht drin ob die convertierung zu flv funktioniert oder nicht.

Nur so nebenbei, deine Config und DB Daten sind ohne Probleme lesbar.

ballermann
Posts: 13
Joined: 2006-12-01 18:01
Location: Siegburg / NRW

Re: ffmpeg / ffmpeg-php brauche Hilfe !

Post by ballermann » 2006-12-28 14:16

[Thu Dec 28 10:04:05 2006] [error] [client 80.144.215.166] File does not exist: /usr/home/web/airfans.de/video/flvideo/1.jpg
[Thu Dec 28 10:04:16 2006] [error] [client 80.144.215.166] File does not exist: /usr/home/web/airfans.de/video/flvideo/1.flv
Das ist ein Auszug aus der error_log.

Demzufolge wird das Video nicht in Flash umgewandelt und abgespeichert.
Warum ?

a-n
Posts: 145
Joined: 2004-05-10 10:15

Re: ffmpeg / ffmpeg-php brauche Hilfe !

Post by a-n » 2006-12-28 18:55

Versuch es doch mal ob es manuell funktioniert, dann kannst du wenigsten ffmpeg ausschließen.

Code: Select all

ffmpeg -i /usr/home/web/airfans.de/video/video/1.wmv -acodec mp3 -ar 44100 -ab 64 -y -f flv 1.flv

ballermann
Posts: 13
Joined: 2006-12-01 18:01
Location: Siegburg / NRW

Re: ffmpeg / ffmpeg-php brauche Hilfe !

Post by ballermann » 2006-12-28 19:05

ffmpeg version 0.4.9-pre1, build 4718, Copyright (c) 2000-2004 Fabrice Bellard
built on Dec 26 2006 13:54:15, gcc: 3.3.5 20050117 (prerelease) (SUSE Linux)
Input #0, asf, from '/usr/home/web/airfans.de/video/video/1.wmv':
Duration: 00:01:01.8, bitrate: 407 kb/s
Stream #0.0: Audio: wmav2, 44100 Hz, stereo, 64 kb/s
Stream #0.1: Video: wmv1, 320x240, 1.00 fps
Output #0, flv, to '1.flv':
Stream #0.0: Video: flv, 320x240, 1.00 fps, q=2-31, 200 kb/s
Stream mapping:
Stream #0.1 -> #0.0
Press [q] to stop encoding
[asf @ 0x4007e874]ff asf bad header 90 at:3149291e= 42.5kbits/s
[asf @ 0x4007e874]ff asf skip 7938 0
frame= 61 q=1.6 Lsize= 281kB time=61.0 bitrate= 37.8kbits/s
video:280kB audio:0kB global headers:0kB muxing overhead 0.344679%
Diese Meldungen erscheinen.
Das 1.flv ist leider nirgends zu finden bzw. wo außer im Ordner /video/ sollte es dann sein ?

a-n
Posts: 145
Joined: 2004-05-10 10:15

Re: ffmpeg / ffmpeg-php brauche Hilfe !

Post by a-n » 2006-12-28 21:42

Normal in -> http://www.airfans.de/video/flvideo/

aber

Code: Select all

find / -name 1.flv

ballermann
Posts: 13
Joined: 2006-12-01 18:01
Location: Siegburg / NRW

Re: ffmpeg / ffmpeg-php brauche Hilfe !

Post by ballermann » 2006-12-28 21:47

hab die Datei hier /usr/local/modphp/lib/php/extensions gefunden.
Und nun ?

a-n
Posts: 145
Joined: 2004-05-10 10:15

Re: ffmpeg / ffmpeg-php brauche Hilfe !

Post by a-n » 2006-12-28 22:01

sorry, aber du machst dich megaaaaaaa unglücklich mit diesem YouTube Clone. Wenn man kein Plan hat, dann wirst du nur ärger haben. Selbst deine Datenbank kann jeder sofort löschen, weil deine Passwörter offen verfügbar sind.

ballermann
Posts: 13
Joined: 2006-12-01 18:01
Location: Siegburg / NRW

Re: ffmpeg / ffmpeg-php brauche Hilfe !

Post by ballermann » 2006-12-28 22:15

@ A-N ICQ ?

Mein ICQ 337859198

Wo sieht man die Passwörter ?
Welches Script könntest Du als Alternative empfehlen ?

a-n
Posts: 145
Joined: 2004-05-10 10:15

Re: ffmpeg / ffmpeg-php brauche Hilfe !

Post by a-n » 2006-12-28 22:40

Scheinst es selber gefunden zu haben :)

Ich kenne keine alternative ... Ich will die Software nicht schlecht machen, aber ohne das du selber "handanlegst" wird es nichts. Und wieso das ganze nicht funktioniert weiß ich auch nicht. Aber beobachte deine logs unter /var/log/apache2/error.log (oder wo auch immer die sind bei dir) während dem uploaden. Danach solltest du den Fehler finden.

ballermann
Posts: 13
Joined: 2006-12-01 18:01
Location: Siegburg / NRW

Re: ffmpeg / ffmpeg-php brauche Hilfe !

Post by ballermann » 2006-12-28 22:44

Danke erstmal !

Ich habe den ganzen Rotz zunächst gelöscht.

War arg überrascht, dass ich durch die ganzen Verzeichnisse browsen konnte :o

a-n
Posts: 145
Joined: 2004-05-10 10:15

Re: ffmpeg / ffmpeg-php brauche Hilfe !

Post by a-n » 2006-12-29 11:05

ballermann wrote:Danke erstmal !

Ich habe den ganzen Rotz zunächst gelöscht.

War arg überrascht, dass ich durch die ganzen Verzeichnisse browsen konnte :o
Einstellungssache, hat mit der Software im grunde nichts zu tun.

ballermann
Posts: 13
Joined: 2006-12-01 18:01
Location: Siegburg / NRW

Re: ffmpeg / ffmpeg-php brauche Hilfe !

Post by ballermann » 2006-12-29 12:01

Einstellungssache, hat mit der Software im grunde nichts zu tun.
Na prima ! Dann gib doch mal bitte einen Tipp ! :lol:

Warum kann man nur durch das Verzeichnis browsen und nicht durch die anderen ?

Ist da irgendetwas über .htaccess zu machen ?

grandcat
Posts: 104
Joined: 2006-08-15 12:26
Location: Bayern

Re: ffmpeg / ffmpeg-php brauche Hilfe !

Post by grandcat » 2006-12-29 12:50

ballermann wrote: Warum kann man nur durch das Verzeichnis browsen und nicht durch die anderen ?
Das liegt an der Rechtevergabe der Verzeichnisse :wink: